• si quieres formar parte del foro puedes hacerlo mediante el siguiente correo electrónico. ✅ [email protected]

Star Wars: The Clone Wars T1 [DSNP WEB-DL 1080p][Dual DDP5.1+Subt][1,5GB][22/22][DRIVE]

Betamax

Uploader Master
Registrado
17 Abr 2023
Mensajes
639
Puntuación de reacción
8
Puntos
18
5R33Qxdl.png




Título original
Star Wars: The Clone Wars
Año
2008
Duración
22 min.
País
Estados Unidos
Dirección
George Lucas (Creador), Dave Filoni (Creador), Henry Gilroy (Creador), Steward Lee, Brian O'Connell, Dave Bullock, Rob Coleman, Dave Filoni
Guion
Kevin Campbell, Henry Gilroy, George Krstic, Drew Z. Greenberg
Música
Kevin Kiner. Tema: John Williams
Fotografía
Animación
Reparto
Animación
Compañías
Lucasfilm Animation, Disney-ABC Domestic Television, Cartoon Network, CGCG, Lucasfilm Animation Singapore, Lucasfilm, Walt Disney Television. Distribuidora: Disney+
Género
Serie de TV. Animación. Ciencia ficción. Acción. Aventuras. Fantástico | Star Wars. Remake
Sinopsis
Serie de TV (2008-2013).108 episodios. Remake con animación digital de la serie homónima creada por Genndy Tartakovsky en 2003, y que tomaba lugar entre las películas "El ataque de los clones" y "La venganza de los Sith".




Format : Matroska
Format version : Version 4
File size : 1.44 GiB
Duration : 25 min 25 s
Overall bit rate mode : Variable
Overall bit rate : 8 105 kb/s
Frame rate : 23.976 FPS
Encoded date : 2021-05-12 16:43:52 UTC
Writing application : mkvmerge v32.0.0 ('Astral Progressions') 32-bit
Writing library : libebml v1.3.7 + libmatroska v1.5.0

Video
ID : 1
Format : AVC
Format/Info : Advanced Video Codec
Format profile : High@L4
Format settings : CABAC / 4 Ref Frames
Format settings, CABAC : Yes
Format settings, Reference frames : 4 frames
Codec ID : V_MPEG4/ISO/AVC
Duration : 25 min 25 s
Bit rate mode : Variable
Bit rate : 7 592 kb/s
Maximum bit rate : 12.7 Mb/s
Width : 1 920 pixels
Height : 1 080 pixels
Display aspect ratio : 16:9
Frame rate mode : Constant
Frame rate : 23.976 (24000/1001) FPS
Color space : YUV
Chroma subsampling : 4:2:0
Bit depth : 8 bits
Scan type : Progressive
Bits/(Pixel*Frame) : 0.153
Stream size : 1.35 GiB (94%)
Default : Yes
Forced : No
Color range : Limited
Color primaries : BT.709
Transfer characteristics : BT.709
Matrix coefficients : BT.709

Audio #1
ID : 2
Format : E-AC-3
Format/Info : Enhanced AC-3
Commercial name : Dolby Digital Plus
Codec ID : A_EAC3
Duration : 25 min 25 s
Bit rate mode : Constant
Bit rate : 256 kb/s
Channel(s) : 6 channels
Channel layout : L R C LFE Ls Rs
Sampling rate : 48.0 kHz
Frame rate : 31.250 FPS (1536 SPF)
Compression mode : Lossy
Stream size : 46.6 MiB (3%)
Title : Castellano
Language : Spanish
Service kind : Complete Main
Default : Yes
Forced : No

Audio #2
ID : 3
Format : E-AC-3
Format/Info : Enhanced AC-3
Commercial name : Dolby Digital Plus
Codec ID : A_EAC3
Duration : 25 min 25 s
Bit rate mode : Constant
Bit rate : 256 kb/s
Channel(s) : 6 channels
Channel layout : L R C LFE Ls Rs
Sampling rate : 48.0 kHz
Frame rate : 31.250 FPS (1536 SPF)
Compression mode : Lossy
Stream size : 46.6 MiB (3%)
Title : Inglés
Language : English
Service kind : Complete Main
Default : No
Forced : No

Text #1
ID : 4
Format : UTF-8
Codec ID : S_TEXT/UTF8
Codec ID/Info : UTF-8 Plain Text
Duration : 21 min 19 s
Bit rate : 65 b/s
Frame rate : 0.180 FPS
Count of elements : 230
Stream size : 10.2 KiB (0%)
Title : Español latino [Completos]
Language : Spanish
Default : No
Forced : No

Text #2
ID : 5
Format : UTF-8
Codec ID : S_TEXT/UTF8
Codec ID/Info : UTF-8 Plain Text
Duration : 22 min 25 s
Bit rate : 61 b/s
Frame rate : 0.240 FPS
Count of elements : 323
Stream size : 10.0 KiB (0%)
Title : Inglés [Para sordos]
Language : English
Default : No
Forced : No

Text #3
ID : 6
Format : UTF-8
Codec ID : S_TEXT/UTF8
Codec ID/Info : UTF-8 Plain Text
Duration : 21 min 19 s
Bit rate : 69 b/s
Frame rate : 0.178 FPS
Count of elements : 228
Stream size : 10.8 KiB (0%)
Title : Portugués [Completos]
Language : Portuguese
Default : No
Forced : No

Text #4
ID : 7
Format : UTF-8
Codec ID : S_TEXT/UTF8
Codec ID/Info : UTF-8 Plain Text
Duration : 21 min 9 s
Bit rate : 58 b/s
Frame rate : 0.180 FPS
Count of elements : 228
Stream size : 9.04 KiB (0%)
Title : Finés [Completos]
Language : Finnish
Default : No
Forced : No





de1fEskh.png




ENLACES DRIVE


Código:
Por favor Acceder o
 
Atrás
Arriba Pie