• si quieres formar parte del foro puedes hacerlo mediante el siguiente correo electrónico. ✅ [email protected]

Percy Jackson Y Los Dioses Del Olimpo T.1 [DSNP WEB-DL 1080p] [Dual DDP5.1+SUBS][2GB][VS][08/08]

Betamax

Uploader Master
Registrado
17 Abr 2023
Mensajes
622
Puntuación de reacción
7
Puntos
18

D8JhN3V.jpg




Ficha Técnica


TÍTULO: Percy Jackson y los Dioses del Olimpo (Serie de TV)
TÍTULO ORIGINAL: Percy Jackson and the Olympians
TEMPORADA: 1
CAPÍTULOS: 8
AÑO: 2023
PAÍS: Estados Unidos
DIRECTOR: Rick Riordan, James Bobin, Anders Engström, Jet Wilkinson
GUIÓN: Jonathan E. Steinberg, Rick Riordan. Novelas: Rick Riordan
REPARTO: Walker Scobell, Leah Jeffries, Aryan Simhadri, Threnody Tsai, Jason Gray-Stanford, Jelena Milinkovic, Ryan Cowie, Lance Reddick, Toby Stephens, Jessica Parker Kennedy, Timothy Omundson, Lin-Manuel Miranda, Megan Mullally
COMPAÑÍAS: 20th Century Fox Television, 20th Television, Gotham Group, Walt Disney Television. Distribuidora: Disney+, 20h Television
GÉNERO: Serie de TV. Acción. Aventuras. Drama. Fantástico. Romance | Young Adult
PUNTACIÓN IMDB: 8,6 /10


Sinopsis


Serie de Disney+ basada en las novelas 'Percy Jackson y los dioses del Olimpo' de Rick Riordan, que se implicará como guionista en la adaptación. La serie se estrenará en 2024 y la primera temporada tendrá un total de 8 episodios.






Datos Del Ripeo



Fuente del audio: Disney+
Versión: DSNP WEB-DL 1080p (Sin Logos ni publicidad)
Servidores: Nitroflare, Katfile, Rapidgator, Qiwi, 1Fichier, Pixeldrain y WeTransfer


Datos del Video
Formato: Matroska
Vídeo: AVC | High@L4 | 5.6 Mb/s
Framerate: 24.000
Resolución: 1920x1080
Audio 1: Castellano EAC3 256Kbps 6 canales
Audio 2: Inglés EAC3 With Dolby Atmos 768Kbps 6 canales
Subtitulos: Sí (Castellano + Inglés Forzados y completos)




General
Unique ID : 242417705356415302191718130978096486978 (0xB65FF3A7D332FCDC233004373F011A42)
Complete name : Percy.Jackson.Y.Los.Dioses.Del.Olimpo.1x01.Vaporiz o.Sin.Querer.A.Mi.Profesora.De.Introduccion.Al.Alg ebra.1080p.DSNP.WEB-DL.DUAL.DDP5.1.H.264-Bryan_122.mkv
Format : Matroska
Format version : Version 4
File size : 1.72 GiB
Duration : 37 min 21 s
Overall bit rate mode : Variable
Overall bit rate : 6 586 kb/s
Frame rate : 24.000 FPS
Encoded date : 2023-12-20 08:34:47 UTC
Writing application : mkvmerge v78.0 ('Running') 64-bit
Writing library : libebml v1.4.4 + libmatroska v1.7.1


Video
ID : 1
Format : AVC
Format/Info : Advanced Video Codec
Format profile : High@L4
Format settings : CABAC / 4 Ref Frames
Format settings, CABAC : Yes
Format settings, Reference frames : 4 frames
Codec ID : V_MPEG4/ISO/AVC
Duration : 37 min 21 s
Bit rate mode : Variable
Bit rate : 5 560 kb/s
Maximum bit rate : 12.7 Mb/s
Width : 1 920 pixels
Height : 1 080 pixels
Display aspect ratio : 16:9
Frame rate mode : Constant
Frame rate : 24.000 FPS
Color space : YUV
Chroma subsampling : 4:2:0
Bit depth : 8 bits
Scan type : Progressive
Bits/(Pixel*Frame) : 0.112
Time code of first frame : 00:00:00:0000000000
Stream size : 1.45 GiB (84%)
Default : Yes
Forced : No
Color range : Limited
Color primaries : BT.709
Transfer characteristics : BT.709
Matrix coefficients : BT.709


Audio #1
ID : 2
Format : E-AC-3
Format/Info : Enhanced AC-3
Commercial name : Dolby Digital Plus
Codec ID : A_EAC3
Duration : 37 min 21 s
Bit rate mode : Constant
Bit rate : 256 kb/s
Channel(s) : 6 channels
Channel layout : L R C LFE Ls Rs
Sampling rate : 48.0 kHz
Frame rate : 31.250 FPS (1536 SPF)
Compression mode : Lossy
Stream size : 68.4 MiB (4%)
Language : Spanish (ES)
Service kind : Complete Main
Default : Yes
Forced : Yes


Audio #2
ID : 3
Format : E-AC-3 JOC
Format/Info : Enhanced AC-3 with Joint Object Coding
Commercial name : Dolby Digital Plus with Dolby Atmos
Format settings : Dolby Surround EX
Codec ID : A_EAC3
Duration : 37 min 21 s
Bit rate mode : Constant
Bit rate : 768 kb/s
Channel(s) : 6 channels
Channel layout : L R C LFE Ls Rs
Sampling rate : 48.0 kHz
Frame rate : 31.250 FPS (1536 SPF)
Compression mode : Lossy
Stream size : 205 MiB (12%)
Language : English
Service kind : Complete Main
Default : No
Forced : No
Complexity index : 16
Number of dynamic objects : 15
Bed channel count : 1 channel
Bed channel configuration : LFE


Text #1
ID : 4
Format : UTF-8
Codec ID : S_TEXT/UTF8
Codec ID/Info : UTF-8 Plain Text
Duration : 36 min 21 s
Bit rate : 0 b/s
Frame rate : 0.002 FPS
Count of elements : 4
Stream size : 138 Bytes (0%)
Title : Forzados
Language : Spanish (ES)
Default : Yes
Forced : Yes


Text #2
ID : 5
Format : UTF-8
Codec ID : S_TEXT/UTF8
Codec ID/Info : UTF-8 Plain Text
Duration : 37 min 3 s
Bit rate : 56 b/s
Frame rate : 0.190 FPS
Count of elements : 423
Stream size : 15.3 KiB (0%)
Language : Spanish (ES)
Default : No
Forced : No


Text #3
ID : 6
Format : UTF-8
Codec ID : S_TEXT/UTF8
Codec ID/Info : UTF-8 Plain Text
Duration : 37 min 6 s
Bit rate : 74 b/s
Frame rate : 0.243 FPS
Count of elements : 540
Stream size : 20.2 KiB (0%)
Title : SDH
Language : English
Default : No
Forced : No





Código:
Por favor Acceder o
 
Atrás
Arriba Pie