• si quieres formar parte del foro puedes hacerlo mediante el siguiente correo electrónico. ✅ [email protected]

La profecia 1 (1976) [Bdrip 1080p 60fps][dual Ac3/Ac3 5.1+sub][Terror/Sobrenatural/Anticristo] -1Fichier

Betamax

Uploader Master
Registrado
17 Abr 2023
Mensajes
622
Puntuación de reacción
7
Puntos
18

OrI3YfFl.jpg




La profecia 1 (1976) [Bdrip 1080p 60fps][dual Ac3/Ac3 5.1+sub][Terror/Sobrenatural/Anticristo]

Título original The Omen
Año 1976
Duración 111 min.
País Estados Unidos
Dirección Richard Donner
Guion
David Seltzer
Música
Jerry Goldsmith
Fotografía
Gilbert Taylor
Reparto
Gregory Peck , Lee Remick , Harvey Stephens , David Warner , Billie Whitelaw , Leo McKern , Patrick Troughton , Robert Rietty , Martin Benson
Productora 20th Century Fox
Género
Terror . Intriga | Sobrenatural . Infancia . Fin del mundo Grupos La profecía
Sinopsis
Cuando Kathy Thorn da a luz a un bebé muerto, su esposo Robert le oculta la verdad y sustituye a su hijo por un niño huérfano, ignorando su origen satánico. El horror empieza cuando, en el quinto cumpleaños de Damien, inesperadamente, su niñera se suicida. Un sacerdote que trata de anunciar a Robert del peligro que corre, muere en un accidente inesperado. El creciente número de muertes hace que Robert, por fin, se dé cuenta de que el niño que han adoptado es el Anticristo y que hay que eliminarlo para impedir que se cumpla una terrible profecía. (FILMAFFINITY) Puntuación: 7,4

Premios
1976 : Premios Oscar: Mejor banda sonora original. 2 nominaciones
1976 : Globos de Oro: Nominada mejor actor revelación (Harvey Stephens)
1976 : Premios BAFTA: Nominada a mejor actriz secundaria (Billie Whitelaw)
1976 : Sindicato de Guionistas (WGA): Nominada a mejor guion drama original



General
Unique ID : 319622957096441381017286933950224367177 (0xF07524743B74772286A20E715BE37E49)
Complete name : La profecia 1 (1976) Bdrip 1080p 60fps dual.mkv
Format : Matroska
Format version : Version 4
File size : 7.94 GiB
Duration : 1 h 51 min
Overall bit rate : 10.2 Mb/s
Movie name : La profecia 1 (1976) Bdrip 1080p 60fps dual
Encoded date : UTC 2022-10-31 21:50:11
Writing application : mkvmerge v64.0.0 ('Willows') 64-bit
Writing library : libebml v1.4.2 + libmatroska v1.6.4

Video
ID : 1
Format : AVC
Format/Info : Advanced Video Codec
Format profile : [email protected]
Format settings : CABAC / 4 Ref Frames
Format settings, CABAC : Yes
Format settings, Reference fra : 4 frames
Codec ID : V_MPEG4/ISO/AVC
Duration : 1 h 51 min
Bit rate : 9 605 kb/s
Width : 1 920 pixels
Height : 816 pixels
Display aspect ratio : 2.35:1
Frame rate mode : Constant
Frame rate : 59.940 (59940/1000) FPS
Color space : YUV
Chroma subsampling : 4:2:0
Bit depth : 8 bits
Scan type : Progressive
Bits/(Pixel*Frame) : 0.102
Stream size : 7.44 GiB (94%)
Title : La profecia 1 (1976) Bdrip 1080p 60fps dual
Writing library : x264 core 133 r2334 a3ac64b
Encoding settings : cabac=1 / ref=3 / deblock=1:0:0 / analyse=0x3:0x113 / me=hex / subme=7 / psy=1 / psy_rd=1.00:0.00 / mixed_ref=1 / me_range=16 / chroma_me=1 / trellis=1 / 8x8dct=1 / cqm=0 / deadzone=21,11 / fast_pskip=1 / chroma_qp_offset=-2 / threads=6 / lookahead_threads=1 / sliced_threads=0 / nr=0 / decimate=1 / interlaced=0 / bluray_compat=0 / constrained_intra=0 / bframes=3 / b_pyramid=2 / b_adapt=1 / b_bias=0 / direct=1 / weightb=1 / open_gop=0 / weightp=2 / keyint=599 / keyint_min=59 / scenecut=40 / intra_refresh=0 / rc_lookahead=40 / rc=2pass / mbtree=1 / bitrate=9605 / ratetol=1.0 / qcomp=0.60 / qpmin=0 / qpmax=69 / qpstep=4 / cplxblur=20.0 / qblur=0.5 / ip_ratio=1.40 / aq=1:1.00
Language : English
Default : Yes
Forced : Yes

Audio #1
ID : 2
Format : AC-3
Format/Info : Audio Coding 3
Commercial name : Dolby Digital
Codec ID : A_AC3
Duration : 1 h 51 min
Bit rate mode : Constant
Bit rate : 384 kb/s
Channel(s) : 2 channels
Channel layout : L R
Sampling rate : 48.0 kHz
Frame rate : 31.250 FPS (1536 SPF)
Compression mode : Lossy
Delay relative to video : 24 ms
Stream size : 305 MiB (4%)
Title : Castellano Ac3 2.0
Language : Spanish
Service kind : Complete Main
Default : Yes
Forced : Yes

Audio #2
ID : 3
Format : AC-3
Format/Info : Audio Coding 3
Commercial name : Dolby Digital
Codec ID : A_AC3
Duration : 1 h 51 min
Bit rate mode : Constant
Bit rate : 256 kb/s
Channel(s) : 6 channels
Channel layout : L R C LFE Ls Rs
Sampling rate : 48.0 kHz
Frame rate : 31.250 FPS (1536 SPF)
Compression mode : Lossy
Stream size : 203 MiB (2%)
Title : Inglés Ac3 5.1
Language : English
Service kind : Complete Main
Default : No
Forced : No

Text #1
ID : 4
Format : UTF-8
Codec ID : S_TEXT/UTF8
Codec ID/Info : UTF-8 Plain Text
Duration : 12 min 34 s
Bit rate : 0 b/s
Frame rate : 0.003 FPS
Count of elements : 2
Stream size : 68.0 Bytes (0%)
Title : Forzados
Language : Spanish
Default : Yes
Forced : Yes

Text #2
ID : 5
Format : UTF-8
Codec ID : S_TEXT/UTF8
Codec ID/Info : UTF-8 Plain Text
Duration : 1 h 49 min
Bit rate : 33 b/s
Frame rate : 0.105 FPS
Count of elements : 689
Stream size : 26.5 KiB (0%)
Title : Español completos
Language : Spanish
Default : No
Forced : No



Código:
Por favor Acceder o




I0rXQBmh.jpg
 
Atrás
Arriba Pie